#TITLE:Gentlemen;
#SUBTITLE:Expi3nze;
#ARTIST:PSY;
#TITLETRANSLIT:;
#SUBTITLETRANSLIT:;
#ARTISTTRANSLIT:;
#CREDIT:;
#BANNER:bn.png;
#BACKGROUND:bg.png;
#LYRICSPATH:;
#CDTITLE:;
#MUSIC:Gentlemen.mp3;
#OFFSET:-0.220;
#SAMPLESTART:61.172;
#SAMPLELENGTH:15.238;
#SELECTABLE:YES;
#BPMS:0.000=126.000,15.000=63.000,15.333=252.000,16.000=126.000,31.000=63.000,31.333=252.000,32.000=126.000,47.000=252.000,47.500=126.000,47.750=63.000,48.000=126.000,63.000=63.000,63.333=252.000,64.000=126.000,95.000=63.000,95.333=252.000,96.000=126.000,96.750=252.000,97.750=126.000,98.250=252.000,99.250=126.000,99.750=252.000,100.750=126.000,101.250=252.000,102.250=126.000,102.750=252.000,103.750=126.000,104.250=252.000,105.250=126.000,105.750=252.000,106.750=126.000,107.250=252.000,108.250=126.000,108.750=252.000,109.750=126.000,110.250=252.000,111.250=126.000,111.750=252.000,112.750=126.000,113.250=252.000,114.250=126.000,114.750=252.000,115.750=126.000,116.250=252.000,117.250=63.000,117.500=252.000,118.000=126.000,130.000=63.000,132.333=252.000,133.000=126.000,148.000=63.000,148.333=252.000,149.000=126.000,164.000=63.000,164.333=252.000,165.000=126.000,180.000=63.000,180.333=252.000,181.000=126.000,208.000=63.000,210.333=252.000,211.000=126.000,226.000=63.000,226.333=252.000,227.000=126.000,242.000=63.000,242.333=252.000,243.000=126.000,258.000=63.000,258.333=252.000,259.000=126.000,271.000=63.000,273.000=126.000;
#STOPS:;
#BGCHANGES:0.000=video1.avi=1.000=0=0=1,
132.000=video2.avi=1.000=0=0=1,
99999=-nosongbg-=1.000=0=0=0 // don't automatically add -songbackground-
;
// cache tags:
#FIRSTBEAT:0.000;
#LASTBEAT:272.750;
#SONGFILENAME:Songs/je/Gentlemen (PSY)/Gentlemen.sm;
#HASMUSIC:1;
#HASBANNER:1;
#MUSICLENGTH:131.399;
// end cache tags

//---------------dance-single - ----------------
#NOTES:
     dance-single:
     :
     Easy:
     6:
     0.672,0.649,0.350,0.495,0.354,506.000,46.000,65.000,33.000,6.000:
1000
0100
0010
1000
0010
0100
1000
0100
,
0010
0001
0100
1000
0001
1000
0100
0001
,
0010
0100
1000
0100
1000
0001
0010
1000
,
0001
0100
0010
0100
0001
1000
0011
0000
,
1000
0000
0000
0000
0001
0000
0100
0010
0001
0000
0100
0000
0001
0000
0010
0000
,
0100
1000
0100
0001
0010
0100
1000
0010
,
1000
0000
0000
0000
0010
0000
1000
0100
0010
0000
1000
0000
0010
0000
0001
0000
,
0100
0000
1000
0100
0010
0000
0100
0001
1000
0000
0010
0000
0001
0000
0000
0000
,
0100
0000
0010
0010
1000
0100
0001
0010
,
0100
0001
1000
0100
1000
0001
0100
0010
,
0001
0000
0000
0000
0100
0000
0010
0001
0010
0000
1000
0000
0001
0000
0010
0000
,
0100
0000
1000
0100
0010
0000
1000
0100
0010
0000
1000
0000
1100
0000
0000
0000
,
0101
0000
0000
0000
0010
0000
0100
0010
0001
0000
1000
0000
0010
0000
0100
0000
,
0001
1000
0100
0010
1000
0100
0010
0100
,
0001
0000
0000
0000
0100
0000
0001
0010
0001
0000
0100
0000
1000
0000
0010
0000
,
1000
0000
1000
0010
0001
0000
0010
0001
0010
0000
1000
0000
1010
0000
0000
0000
,
1010
1000
0011
1000
0001
0100
0011
1000
,
0010
1000
0110
0001
1000
0010
0110
1000
,
0010
1000
1100
0010
1000
0001
1100
0010
,
1000
0001
1001
0100
0001
0010
1100
0010
,
1001
0010
1001
0010
1000
0010
0110
0001
,
1000
0010
1100
0010
1000
0001
0011
1000
,
0001
0100
0011
1000
0001
0100
1001
0010
,
0100
0000
1000
0100
0011
0000
1000
0100
0010
0000
1000
0100
0011
0000
0000
0000
,
1011
0000
0000
0000
00M0
0010
0000
0000
0000
0000
0M00
0100
0000
0000
0000
0000
,
000M
0001
0000
0000
0000
0000
M000
1000
0000
0000
0000
0000
00M0
0010
0000
0000
,
0000
0000
0M00
0100
0000
0000
0000
0000
000M
0001
0000
0000
0000
0000
M000
1000
,
0000
0000
0000
0000
00M0
0010
0000
0000
0000
0000
0M00
0100
0000
0000
0000
0000
,
000M
0001
0000
0000
0000
0000
M000
1000
0000
0000
0000
0000
00M0
0010
0000
0000
,
0000
0000
0M00
0100
0000
0000
0000
0000
0010
0000
0000
0000
0010
0000
0000
0010
,
0000
0000
0010
0000
0000
0000
0010
0000
1000
0000
0001
0000
1000
0000
0000
1000
,
0000
0000
1000
0000
0000
0000
0001
0000
0001
0000
0001
0000
1000
0100
0010
0001
,
0010
0100
1000
0001
0010
0100
1000
0001
0010
0000
0000
0000
0000
0000
0000
0000
,
1100
0000
0000
0000
2000
0000
0000
0000
3001
0000
0100
0010
0001
0000
0100
0000
,
0001
0000
2000
3002
2003
3002
2003
3002
,
2003
0000
0000
0000
3020
0000
0000
0000
1030
0000
1000
0100
1000
0000
0010
0000
,
0200
0000
0000
0000
0302
0000
0103
0010
0002
0000
0103
0010
0002
0000
0113
0000
,
0110
0000
0000
0000
2000
0000
0000
0000
3001
0000
0100
0010
1000
0000
0001
0000
,
0002
0000
2003
3002
2003
3002
2003
3002
,
2003
0000
0000
0000
3200
0000
0000
0000
0301
0000
0001
0010
0001
0000
0001
0000
,
0200
0000
0000
0000
2300
0000
3100
0010
2000
0000
3100
0010
2000
0000
3110
0000
,
0110
0000
0000
0000
0110
0000
0100
0001
0010
0000
1000
0000
0002
0000
0000
0000
,
0103
0000
0000
0000
0010
0000
0010
0100
1000
0000
0001
0000
0020
0000
0000
0000
,
1030
0000
0000
0000
1000
0001
0010
0000
1000
0000
0001
0000
0002
0000
0000
0000
,
1003
0001
0200
0320
,
1130
0000
0000
0000
1100
0000
0010
0001
0100
0000
0010
0000
0020
0000
1000
0000
,
0031
0000
1000
0000
1100
0000
0001
0010
0100
0000
0001
0000
0002
0000
1000
0000
,
0103
0000
0001
0000
0011
1000
0100
0000
0010
0000
1000
0000
0020
0000
0100
0000
,
1030
0001
1100
0000
0200
0000
0302
0000
,
0103
1000
1100
0001
0110
0001
1100
0001
,
0110
0000
0001
0000
1000
0100
0010
0001
0010
0100
1000
0100
0010
0001
0010
0100
,
1000
0000
0000
0100
0000
0000
0010
0000
0000
0001
0000
0000
00M0
0000
000M
0000
00M0
0000
0M00
0000
M000
0000
000M
0000
00M0
0000
0M00
0000
M000
0000
000M
0000
00M0
0000
0M00
0000
M000
0000
000M
0000
00M0
0000
0M00
0000
M000
0000
00M0
0000
,
000M
0000
1100
2000
,
3001
0000
0100
0010
0001
0000
0100
0000
0001
0000
0000
0000
2000
0000
3002
0000
,
2003
3002
2003
3002
2003
0000
3020
0000
,
1030
0000
1000
0100
1000
0000
0010
0000
0200
0000
0000
0000
0302
0000
0103
0010
,
0002
0000
0103
0010
0002
0000
0113
0000
0110
0000
0000
0000
2000
0000
0000
0000
,
3001
0000
0100
0010
1000
0000
0001
0000
0002
0000
0000
0000
2003
0000
3002
0000
,
2003
3002
2003
3002
2003
0000
3200
0000
,
0301
0000
0001
0010
0001
0000
0001
0000
0200
0000
0000
0000
2300
0000
3100
0010
,
2000
0000
3100
0010
2000
0000
3110
0000
0110
0000
0000
0000
0010
0010
0001
0000
,
0010
0000
1000
0100
0010
0000
1000
0000
0001
0000
0000
0000
1000
0000
0001
0010
,
0100
0000
0001
0010
0100
0000
0001
0000
1100
0000
0001
0000
1000
0100
0010
0000
,
1000
0000
0010
0001
0010
0000
1000
0000
0001
0000
0000
0000
1000
0000
1000
0010
,
0100
0000
1000
0100
0010
0000
0100
0000
0110
0000
0000
0000
0011
0100
1000
0000
,
0010
0000
0001
0010
0100
0000
0001
0000
0100
0000
0000
0000
1000
0000
1000
0001
,
0100
0000
0001
0010
0100
0000
0001
0000
1000
0000
0000
0000
0010
0001
0010
0000
,
1000
0000
0001
0010
0100
0000
0001
0000
1000
0100
0010
0000
0200
0000
0000
0000
,
0000
0000
0000
0300
0000
0000
0000
0000
0000
0000
0000
0000
0000
0000
0000
0000
,
0000
0000
0000
0000
,
0000
0000
0000
0000
,
0000
0000
0000
0000
,
0000
0000
0000
0000
,
0000
0000
0000
0000
,
0000
0000
0000
0000
,
0000
0000
0000
0000
,
0000
0000
0000
0000
,
0000
0000
0000
0000
,
0000
0000
0000
0000
,
0000
0000
0000
0000
;

//---------------dance-single - ----------------
#NOTES:
     dance-single:
     :
     Medium:
     11:
     1.000,1.000,1.000,1.000,0.571,584.000,167.000,194.000,14.000,118.000:
1000
0100
0011
1000
0010
0100
1001
0100
,
0010
0001
0110
1000
0001
1000
0110
0001
,
0010
0100
1001
0100
1000
0001
0110
1000
,
0001
0100
1010
0100
0001
1000
0011
0000
,
2000
0000
0000
0000
3011
0000
0100
0010
0001
0000
0010
0000
2001
0000
0010
0000
,
3100
1000
1100
0001
0010
0010
0200
0020
,
2330
0000
0000
0000
3011
0000
1000
0100
0010
0000
1000
0000
0020
0000
0001
0000
,
0130
0000
0000
0000
0000
0000
1000
0000
0000
0100
0000
0000
0010
0000
0000
0000
0000
0000
0100
0000
0000
0001
0000
0000
2000
0000
0000
0000
0000
0000
0010
0000
0000
0000
0000
0000
3002
0000
0000
0000
2000
0000
0000
0000
0003
0000
0000
0000
,
3200
0000
0000
0000
0312
0000
0010
0000
0203
0000
0020
0300
2031
0000
0020
0000
,
3230
0001
1310
1000
1020
0001
2130
3020
,
2031
0000
0000
0000
3200
0000
0010
0001
2310
0000
0200
3000
0321
0000
0002
0000
,
2033
0000
0010
0100
3010
0000
1000
0100
0012
0000
1000
0000
2203
0000
0000
3310
,
0102
0000
0000
0000
2003
0000
0100
0010
3201
0000
2000
0300
3012
0000
0200
0000
,
0323
0000
1000
0000
1130
0000
0010
0000
2000
0000
0010
0000
3012
0000
0020
0003
,
0132
0000
0000
0000
0203
0000
0010
0010
2301
0000
0200
3000
1320
0000
0002
0000
,
2033
0000
0100
0010
3001
0000
0010
0001
0010
0000
0010
0000
1010
0000
0000
0000
,
1110
0000
0100
1000
0011
1000
0100
0010
0001
0010
0100
1000
0011
1000
0100
0010
,
1000
0100
0010
0001
0110
0001
0010
0001
0010
0100
0010
0001
0110
0001
0010
0100
,
1000
0100
0010
0001
1100
0001
0010
0100
1000
0001
0010
0001
1100
0001
0010
0100
,
1000
0001
0010
0100
1001
0100
1000
0100
0010
0100
0010
0001
0010
0001
0010
0100
,
1010
0100
0010
0100
1001
0100
0010
0100
1000
0100
0010
0001
0110
0001
0010
0100
,
1000
0100
0010
0001
0110
0001
0010
0100
1000
0100
1000
0100
0011
0100
1000
0100
,
0001
0010
0100
1000
0011
1000
0100
0010
0001
0010
0100
0010
1001
0010
0001
0010
,
0001
0000
0100
1000
0011
0000
0100
1000
0100
0000
0100
1000
0011
0000
0000
0000
,
2111
0000
0000
0000
00M0
0020
0000
0000
0000
0000
0M00
0200
0000
0000
0000
0000
,
000M
3002
0000
0000
0000
0000
M000
2030
0000
0000
0000
0000
00M0
0320
0000
0000
,
0000
0000
0M00
0200
0000
0003
0000
0000
000M
3002
0000
0000
0000
0000
M000
2030
,
0000
0000
0000
0000
00M0
0320
0000
0000
0000
0000
0M00
0203
0000
0000
0000
0000
,
000M
3002
0000
0000
0000
0000
M000
2030
0000
0000
0000
0000
00M0
0320
0000
0000
,
0000
0000
0M00
0200
0000
0000
0000
0033
0011
0000
0000
0000
3010
0000
0000
0010
,
0000
0000
0010
0000
0000
0000
0010
0000
1000
0000
0001
0000
1001
0000
0000
1001
,
0000
0000
1001
0000
0000
0000
0001
0000
0001
0000
1001
0000
0010
0001
0010
0001
,
0010
0001
0010
0001
0010
0001
0010
0001
0310
0000
0000
0000
0000
0000
0000
0000
,
1110
0000
0000
0000
2200
0000
0000
0000
3301
0000
0100
0010
0001
0000
0100
0000
,
0122
0000
2233
3322
2233
3322
2233
3322
,
2233
0000
0300
0000
3220
0000
0000
0000
1330
0000
1000
0100
1000
0000
0010
0000
,
0220
0000
0000
0000
2332
0000
3103
0010
2002
0000
3103
0010
2002
0000
3113
0000
,
0110
0000
0000
0000
2200
0000
0000
0000
3301
0000
0100
0010
1000
0000
0001
0000
,
0022
0000
2233
3322
2233
3322
2233
3322
,
2233
0000
0300
0000
3220
0000
0000
0000
0331
0000
0001
0010
0001
0000
0001
0000
,
0220
0000
0000
0000
2332
0000
3103
0010
2002
0000
3103
0010
2002
0000
3113
0000
,
0110
0000
0000
0000
1010
0000
0010
0001
0010
0000
1000
0000
2002
0000
0000
0000
,
3113
0000
0000
0000
0010
0000
0010
0100
1001
0000
0001
0000
0022
0000
0000
0000
,
1133
0000
0000
0000
1100
0001
0010
0000
1000
0000
0001
0000
0022
0000
0000
0000
,
1133
1100
2200
3322
,
1133
0000
0000
0000
1100
0000
0010
0001
1100
0000
0100
0000
0220
0000
0001
0000
,
0331
0000
1100
0000
1100
0000
0001
0010
0100
0000
0001
0000
0022
0000
1000
0000
,
1033
0000
0011
0000
0011
1000
0100
0000
1010
0000
1010
0000
2020
0000
0100
0000
,
3031
1100
1100
0000
0220
1000
2332
0010
,
3103
1000
1100
0001
0110
0001
1100
0001
,
0110
0000
0001
0000
1000
1000
1000
1000
0010
0010
0010
0010
0100
0100
0100
0100
,
0001
0000
0000
0001
0000
0000
0001
0000
0000
0001
0000
0000
0010
0000
0001
0000
0010
0000
0100
0000
1000
0000
0001
0000
0010
0000
0100
0000
1000
0000
0001
0000
0010
0000
0100
0000
1000
0000
0001
0000
0010
0000
0100
0000
1000
0000
0010
0000
,
0001
0000
1100
2200
,
3301
0000
0100
0010
0001
0000
0100
0000
0122
0000
0000
0000
2233
0000
3322
0000
,
2233
3322
2233
3322
2233
0300
3220
0000
,
1330
0000
1000
0100
1000
0000
0010
0000
0220
0000
0000
0000
2332
0000
3103
0010
,
2002
0000
3103
0010
2002
0000
3113
0000
0110
0000
0000
0000
2200
0000
0000
0000
,
3301
0000
0100
0010
1000
0000
0001
0000
0022
0000
0000
0000
2233
0000
3322
0000
,
2233
3322
2233
3322
2233
0300
3220
0000
,
0331
0000
0001
0010
0001
0000
0001
0000
0220
0000
0000
0000
2332
0000
3103
0010
,
2002
0000
3103
0010
2002
0000
3113
0000
0110
0000
0000
0000
0010
0010
0001
0000
,
0011
0000
1000
0100
0010
0000
1000
0000
0110
0000
0000
0000
1000
0000
0001
0010
,
1100
0000
0001
0010
0100
0000
0001
0000
1100
0000
0001
0000
1000
0010
0001
0000
,
1100
0000
0010
0001
0010
0000
1000
0000
0101
0000
0000
0000
1000
0000
1000
0010
,
0101
0000
1000
0100
0010
0000
0100
0000
0101
0000
0000
0000
0011
0100
1000
0000
,
0010
0000
0001
0010
1100
0000
0001
0000
0101
0000
0000
0000
1000
0000
1000
0001
,
1100
0000
0001
0010
0100
0000
0001
0000
0011
0000
0000
0000
0010
0001
1000
0000
,
1100
0000
0001
0010
0100
0000
0001
0000
1010
0100
0010
0000
0200
0000
0000
0000
,
0000
0000
0000
0300
0000
0000
0000
0000
0000
0000
0000
0000
0000
0000
0000
0000
,
0000
0000
0000
0000
,
0000
0000
0000
0000
,
0000
0000
0000
0000
,
0000
0000
0000
0000
,
0000
0000
0000
0000
,
0000
0000
0000
0000
,
0000
0000
0000
0000
,
0000
0000
0000
0000
,
0000
0000
0000
0000
,
0000
0000
0000
0000
,
0000
0000
0000
0000
;

//---------------dance-single - ----------------
#NOTES:
     dance-single:
     :
     Hard:
     19:
     1.000,1.000,1.000,1.000,0.586,588.000,345.000,210.000,14.000,216.000:
0100
0100
1011
0001
1010
0100
1011
0100
,
0011
1000
0111
1000
0011
1000
1110
0001
,
1010
0100
1011
0100
1010
0001
0111
1000
,
0011
1000
1011
0100
0011
1000
0111
0000
,
2000
0000
0000
0000
3111
0000
0100
0010
0101
0000
0101
0000
2101
0000
0010
0000
,
3101
1001
1101
1100
0101
0101
0211
0020
,
2331
0000
0000
0000
3111
0000
1000
1000
0110
0000
0110
0000
0020
0000
0101
0000
,
0131
0000
0000
0000
0000
0000
1000
0000
0000
0100
0000
0000
0010
0000
0000
0000
0000
0000
1000
0000
0000
0100
0000
0000
2000
0000
0000
0000
0000
0000
0010
0000
0000
0000
0000
0000
3112
0000
0000
0000
2000
0000
0000
0000
0003
0000
0000
0000
,
3211
0000
0000
0000
1312
0000
1000
1000
1203
0000
0020
0300
2131
0000
0020
0000
,
3231
0001
1311
1001
1020
0001
2131
3020
,
2131
0000
0000
0000
3210
0000
0010
0001
2310
0000
0200
3000
1321
0000
0002
0000
,
2133
0000
0010
0100
3011
0000
1000
0100
0012
0000
1000
0000
2213
0000
0000
3310
,
1102
0000
0000
0000
2103
0000
0100
0010
3201
0000
2000
0300
3112
0000
0200
0000
,
1323
0000
1000
0000
1131
0000
0010
0000
2100
0000
0010
0000
3012
0000
0020
0003
,
0132
0000
0000
0000
0213
0000
0010
0010
2301
0000
0200
3000
1321
0000
0002
0000
,
2033
0000
0010
0010
3101
0000
0010
0001
1010
0000
1010
0000
1011
0000
0000
0000
,
1101
0000
0100
1000
0111
1000
0100
0010
1001
0010
0100
1000
0111
1000
0100
0010
,
1001
0100
0010
0001
1110
0001
0010
0001
1010
0100
0010
0001
1110
0001
0010
0100
,
1001
0100
0010
0001
1110
0001
0010
0100
1010
0001
0010
0001
1110
0001
0010
0100
,
1010
0001
0010
0100
1011
0100
1000
0100
0011
0100
0010
0001
1010
0001
0010
0100
,
1011
0100
0010
0100
1011
0100
0010
0100
1001
0100
0010
0001
1110
0001
0010
0100
,
1001
0100
0010
0001
1110
0001
0010
0100
1001
0100
1000
0100
1011
0100
1000
0100
,
1001
0010
0100
1000
0111
1000
0100
0010
1001
0010
0100
0010
1101
0010
0001
0010
,
1001
0000
0100
1000
0111
0000
0100
1000
0101
0000
0100
1000
0111
0000
0000
0000
,
2111
0000
0000
0000
00M0
0020
0000
0000
0000
0000
0M00
0200
0000
0000
0000
0000
,
000M
3002
0000
0000
0000
0000
M000
2030
0000
0000
0000
0000
00M0
0320
0000
0000
,
0000
0000
0M00
0200
0000
0003
0000
0000
000M
3002
0000
0000
0000
0000
M000
2030
,
0000
0000
0000
0000
00M0
0320
0000
0000
0000
0000
0M00
0203
0000
0000
0000
0000
,
000M
3002
0000
0000
0000
0000
M000
2030
0000
0000
0000
0000
00M0
0320
0000
0000
,
0000
0000
0M00
0200
0000
0000
0000
0033
0011
0000
0000
0000
3011
0000
0000
0011
,
0000
0000
0011
0000
0000
0000
1010
0000
1010
0000
0011
0000
1001
0000
0000
1001
,
0000
0000
1001
0000
0000
0000
0011
0000
0011
0000
1001
0000
0010
0010
0010
0010
,
1000
0000
0000
1000
0000
0000
1000
0000
0000
1000
0000
0000
0010
0000
0001
0000
0010
0000
0001
0000
0010
0000
0001
0000
0310
0000
0000
0000
0000
0000
0000
0000
0000
0000
0000
0000
0000
0000
0000
0000
0000
0000
0000
0000
0000
0000
0000
0000
,
1111
0000
0000
0000
2200
0000
0000
0000
3311
0000
1100
0011
1100
0000
0101
0000
,
0122
0000
2233
3322
2233
3322
2233
3322
,
2233
0000
0300
0000
3220
0000
0000
0000
1331
0000
1001
0110
1001
0000
0110
0000
,
0220
0000
0000
0000
2332
0000
3223
1001
2332
0000
3223
1001
2332
0000
3113
0000
,
1111
0000
0000
0000
2200
0000
0000
0000
3311
0000
1100
0011
1100
0000
0101
0000
,
0122
0000
2233
3322
2233
3322
2233
3322
,
2233
0000
0300
0000
3220
0000
0000
0000
1331
0000
1001
0110
1001
0000
0110
0000
,
0220
0000
0000
0000
2332
0000
3223
1001
2332
0000
3223
1001
2332
0000
3113
0000
,
1111
0000
0000
0000
1110
0000
0010
0001
1010
0000
1010
0000
2002
0000
0000
0000
,
3113
0000
0000
0000
0011
0000
0011
0100
1001
0000
1001
0000
0022
0000
0000
0000
,
1133
0000
0000
0000
1100
0001
0010
0000
1100
0000
1100
0000
0022
0000
0000
0000
,
1133
1100
2200
3322
,
1133
0000
0000
0000
1110
0000
0110
0001
1100
0000
1100
0000
0220
0000
1001
0000
,
1331
0000
1110
0000
1110
0000
0011
0100
1001
0000
1100
0000
0022
0000
1100
0000
,
1133
0000
0111
0000
0111
1000
0100
0000
1010
0000
1010
0000
2020
0000
0101
0000
,
3131
1110
1110
0000
0220
1001
2332
0110
,
3113
1100
1110
0011
0111
1010
1110
0011
,
0111
0000
1100
0000
1110
0011
0110
1100
0110
0110
1001
0011
0110
1100
1001
1001
,
1001
0000
0000
0011
0000
0000
0110
0000
0000
1100
0000
0000
1100
0000
0001
0000
0010
0000
0101
0000
1000
0000
0001
0000
0010
0000
0101
0000
1000
0000
0001
0000
0010
0000
0101
0000
1000
0000
0001
0000
0010
0000
0101
0000
1000
0000
0010
0000
,
0001
0000
1111
2200
,
3311
0000
1100
0011
1100
0000
0101
0000
0122
0000
0000
0000
2233
0000
3322
0000
,
2233
3322
2233
3322
2233
0300
3220
0000
,
1331
0000
1001
0110
1001
0000
0110
0000
0220
0000
0000
0000
2332
0000
3223
1001
,
2332
0000
3223
1001
2332
0000
3113
0000
1111
0000
0000
0000
2200
0000
0000
0000
,
3311
0000
1100
0011
1100
0000
0101
0000
0122
0000
0000
0000
2233
0000
3322
0000
,
2233
3322
2233
3322
2233
0300
3220
0000
,
1331
0000
1001
0110
1001
0000
0110
0000
0220
0000
0000
0000
2332
0000
3223
1001
,
2332
0000
3223
1001
2332
0000
3113
0000
1111
0000
0000
0000
0010
0010
0001
0000
,
0111
0000
1000
0100
0011
0000
1100
0000
1110
0000
0000
0000
1010
0000
0001
0001
,
1110
0000
0001
0010
0101
0000
0101
0000
1110
0000
0001
0000
1100
0001
0001
0000
,
1110
0000
0010
0001
1010
0000
1010
0000
0111
0000
0000
0000
1010
0000
1000
0010
,
1101
0000
1000
1000
1000
0000
0010
0000
0111
1000
0000
0000
0111
1000
1000
0000
,
0111
0000
0001
0001
1100
0000
0011
0000
0111
0000
0000
0000
1010
0000
1000
0001
,
1110
0000
0001
0001
1100
0000
1100
0000
1011
0000
0000
0000
0011
0001
1000
0000
,
1110
0000
0001
0010
0101
0000
0101
0000
1011
0100
0010
0000
0200
0000
0000
0000
,
0000
0000
0000
0300
0000
0000
0000
0000
0000
0000
0000
0000
0000
0000
0000
0000
;
